Sword Master 2016 In Hindi Download Direct Links Dual Audio UNCUT 720p BluRay Quality Encoded In x264 With English Subtitles.

Sword Master 2016 In Hindi Download Full Movie 720p BLuRay With English Subtitles

Details Of Full Length Free Videos

Title: Sword Master 2016
Genres: Action | Drama
Country: China | Hong Kong
Language: Hindi | English
Release Date: 9 December 2016
Quality: 720p BluRay x264
Subtitles: English
Audio: DTH 2.0
Format: MKV
Size: 1.2-GB

IMDb

Storyline

Sword Master Hindi Movie Free Download Direct Links 720p HD Hong Kong cinema giants Derek Yee (TRIPLE TAP) and Tsui Hark (YOUNG DETECTIVE DEE) join forces in this spellbinding martial arts epic about an elite swordsman who is haunted by his deadly skills, and the challenger who aims to take his place at any cost.

Meanwhile, a drunken lout (Lin Gengxin), arrives at a brothel, drinks until he is out of money, and is coerced into working as a servant for the brothel-keepers. Refusing to give a name, he is nicknamed Ah-Chi (“Useless Chi”). He intercedes when the lowest-status of the prostitutes, Hsiao Li (Jiang Mengjie), is being stiffed by her patrons and bonds with her, but leaves the brothel after he hears that the Big Boss wants to promote him to a bouncer, instead being taken in and working with poor, but happy, nightsoil collectors. Hsaio Li, meanwhile, runs away from the abuse in the brothel with her earnings, back to her home: the very villagers who have taken Ah-Chi in.

The Big Boss sends enforcers to retrieve Hsiao Li and Ah-Chi, but they are defeated by Yen Shisan (carrying around his gravestone) and run back to the Big Boss, one of them announcing that Yen Shisan is going to fight a duel with Shao-Feng. The villagers plead with Yen Shisan to train them in Kung Fu or help them against Big Boss, and eventually swayed, he kills Big Boss (who reveals he is the representative of Divine Might in the town and threatens consequences before being killed) and most of his men, and teaches Ah-Chi his “13 Strikes” unique kung fu technique.

About Sword Master 2016 In Hindi:

Download Sword Master is a 2016 Chinese 3D martial arts film directed by Derek Yee. The film was released on 2 December 2016. The film made its worldwide and domestic debut at the 11th Rome Film Festival and the 53rd Golden Horse Film Festival respectively.the film tributes to the Shaw Brothers Studio’s “Death Duel” film since 1977.

Sword Master Full Movie Hindi Dubbed Cast

  • Lin Gengxin as Hsieh Shao-Feng / Ah Chi
  • Chen Moyan as Shao-Feng (teen)
  • Harashima Daichi as Shao-Feng (juvenile)
  • Peter Ho as Yen Shisan the assassin
  • Jiang Yiyan as Mu-Yung Chiu-Ti
  • Zhang Ziyu as Chiu-Ti (teen)
  • Song Yiren as Chiu-Ti (juvenile)
  • Jiang Mengjie as “Princess” Hsiao Li / Sweetie
  • Norman Chu Siu keung [fr] (credited as Norman Chiu) as Cult (Hsieh Clan & Supreme Sword Manor) Leader Hsieh, Shao-Feng’s father
  • Pau Heiching as Hsiao Li’s mother
  • Ma Jingjing as Miao Tzu, Hsiao Li’s brother
  • Lai Jiatong as Nameless
  • Hong Mu as Madam Mu-yung

MKV File Details

MKV File Details

General The Sword Master 2016 English Subtitles
Format : Matroska
Format version : Version 4
File size : 1.16 GiB
Duration : 1 h 47 min
Overall bit rate : 1 549 kb/s

Video
ID : 1
Format : AVC
Format/Info : Advanced Video Codec
Format profile : High@L4.1
Format settings : CABAC / 9 Ref Frames
Format settings, CABAC : Yes
Format settings, ReFrames : 9 frames
Codec ID : V_MPEG4/ISO/AVC
Duration : 1 h 47 min
Bit rate : 1 200 kb/s
Width : 1 280 pixels
Height : 692 pixels
Display aspect ratio : 1.85:1
Frame rate mode : Sword Master Full Movie Download In Hindi Constant
Frame rate : 24.000 FPS
Color space : YUV
Chroma subsampling : 4:2:0
Bit depth : 8 bits
Default : Yes
Forced : No
Color range : Limited
Color primaries : BT.709
Transfer characteristics : BT.709
Matrix coefficients : BT.709

Audio #1
ID : 2
Format : AC-3
Format/Info : Audio Coding 3
Commercial name : Dolby Digital
Codec ID : A_AC3
Duration : 1 h 47 min
Bit rate mode : Constant
Bit rate : 224 kb/s
Channel(s) : 2 channels
Channel layout : L R
Sampling rate : 48.0 kHz
Frame rate : 31.250 FPS (1536 SPF)
Bit depth : 16 bits
Compression mode : Lossy
Delay relative to video : -17 ms
Stream size : 172 MiB (14%)
Title : Hindi DTH 2.0
Language : Hindi
Service kind : Complete Main
Default : Yes
Forced : Yes

Audio #2
ID : 3
Format : AAC LC
Format/Info : Advanced Audio Codec Low Complexity
Codec ID : A_AAC-2
Duration : 1 h 47 min
Bit rate : 112 kb/s
Channel(s) : 2 channels
Channel layout : L R
Sampling rate : 48.0 kHz
Frame rate : 46.875 FPS (1024 SPF)
Compression mode : Lossy
Delay relative to video : -17 ms
Stream size : 86.6 MiB (7%)
Language : English
Default : No
Forced : No

Text
ID : 4
Format : PGS
Muxing mode : zlib
Codec ID : S_HDMV/PGS
Codec ID/Info : Picture based subtitle format used on BDs/HD-DVDs
Duration : 1 h 39 min
Bit rate : 26.1 kb/s
Count of elements : 2514
Stream size : 18.5 MiB (2%)
Language : English
Default : Yes
Forced : No

Images, Screenshots Of Full Episodes

Some Images Of Sword Master Full Movie In Hindi 720p BluRay HD x264

Sword Master 2016 In Hindi Download Full Movie 720p BLuRay With English Subtitles

Sword Master 2016 In Hindi Download Full Movie 720p BLuRay With English Subtitles

Sword Master 2016 In Hindi Download Full Movie 720p BLuRay With English Subtitles

Sword Master 2016 In Hindi Download Full Movie 720p BLuRay With English Subtitles

Sword Master 2016 In Hindi Download Full Movie 720p BLuRay With English Subtitles

Sword Master 2016 In Hindi Download Full Movie 720p BLuRay With English Subtitles

Watch The Full HD 720p, 1080p Movie Trailers

Watch Sword Master 2016 Full Movie Trailer

Direct Download Links Of Sword Master 2016 Full Movie In Hindi 720p BluRay Given Below

Free Download Direct Links HD

Direct Links For Premium Users

If you are the member of this site then enter your login details and Enjoy Direct Links

Leave a Reply

Your email address will not be published. Required fields are marked *

Check Also

Iron Man 3 (2013) [Hindi + English + Tamil + Telugu] 720p BluRay x264 ESubs – 1 GB

Iron Man 3 Full Movie Download In Hindi, English, Tamil and Telugu MULTi Dubbed 720p HD Bl…