Hum Chaar 2019 Full Movie Free Download In Hindi 480p PRE-DVDRip x264 Quality Encoded In x264 MKV.

Free Download Hum chaar 2019 Full Movie 480p PreDVDRip

Details Of Full Length Free Videos

Title: Hum chaar 2019
Genres: Drama
Country: India
Language: Hindi
Release Date: 15 February 2019
Quality: PRE-DVDRip x264
Audio: AAC
Format: MKV
Size: 748-MB

IMDb

Storyline

The story of the film revolves around four college friends went their own direction in life, but remained inseparable from each other. It is said that friends are the family we choose. Hum Chaar depicts this concept through nostalgic and relatable storytelling. It is a story about the emotional bond shared by four main characters, Namit, Simran, Abeer and Surjo, who start out as friends in college and end up becoming each other’s family. It revolves around the idea and explores the gravity of the fact that in modern times friends are family too.

Main Cast

  • Prit Kamani
  • Anshuman Malhotra
  • Tushar Pandey
  • Simran Sharma

MEDIA INFO

MEDIA INFO

===================================================================
General
Complete name : Hum chaar 2019 Hindi PRE-DVDRip x264 AAC { TaRa }.mkv
Format : Matroska
Format version : Version 4 / Version 2
File size : 749 MiB
Duration : 2 h 19 min
Overall bit rate : 748 kb/s
===================================================================
Video
ID : 1
Format : AVC
Format/Info : Advanced Video Codec
Format profile : High@L3.1
Format settings, CABAC : Yes
Format settings, ReFrames : 4 frames
Codec ID : V_MPEG4/ISO/AVC
Duration : 2 h 19 min
Bit rate : 622 kb/s
Width : 720 pixels
Height : 304 pixels
Display aspect ratio : 2.35:1
Frame rate mode : Constant
Frame rate : 25.000 FPS
Color space : YUV
Chroma subsampling : 4:2:0
Bit depth : 8 bits
Scan type : Progressive
Bits/(Pixel*Frame) : 0.114
Stream size : 621 MiB (83%)
Title : …..::::: TaRa :::::…..
Language : Hindi
Default : Yes
Forced : No
===================================================================
Audio
ID : 2
Format : AAC
Format/Info : Advanced Audio Codec
Format profile : LC
Codec ID : A_AAC
Duration : 2 h 19 min
Bit rate : 126 kb/s
Channel(s) : 2 channels
Channel positions : Front: L R
Sampling rate : 44.1 kHz
Frame rate : 43.066 FPS (1024 spf)
Compression mode : Lossy
Delay relative to video : -23 ms
Stream size : 126 MiB (17%)
Title : …..::::: TaRa :::::…..
Language : Hindi
Default : Yes
Forced : No
===================================================================

Images, Screenshots Of Full Episodes

Screenshots/Images Of Hum chaar 2019 Hindi Movie PRE-DVDRip x264

Free Download Hum chaar 2019 Full Movie 480p PreDVDRip

Free Download Hum chaar 2019 Full Movie 480p PreDVDRip

Free Download Hum chaar 2019 Full Movie 480p PreDVDRip

Free Download Hum chaar 2019 Full Movie 480p PreDVDRip

Free Download Hum chaar 2019 Full Movie 480p PreDVDRip

Watch The Full HD 720p, 1080p Movie Trailers

Watch Hum chaar 2019 Trailer

Free Download Hum chaar Full Movie Hindi In PreDVDRip From Below

Free Download Direct Links HD

Direct Links For Premium Users

If you are the member of this site then enter your login details and Enjoy Direct Links

Leave a Reply

Your email address will not be published. Required fields are marked *

Check Also

Iron Man 3 (2013) [Hindi + English + Tamil + Telugu] 720p BluRay x264 ESubs – 1 GB

Iron Man 3 Full Movie Download In Hindi, English, Tamil and Telugu MULTi Dubbed 720p HD Bl…